<?xml version="1.0" standalone="no"?>
<!DOCTYPE svg PUBLIC "-//W3C//DTD SVG 1.1//EN" "http://www.w3.org/Graphics/SVG/1.1/DTD/svg11.dtd">
<svg xmlns="http://www.w3.org/2000/svg">
<metadata>Generated by Fontastic.me</metadata>
<defs>
<font id="masdar" horiz-adv-x="512">
<font-face font-family="masdar" units-per-em="512" ascent="480" descent="-32"/>
<missing-glyph horiz-adv-x="512" />

<glyph glyph-name="masdar-en" unicode="&#97;" d="M174 108l0 112 217 0 0 74-217 0 0 110 242 0 0 75-327 0 0-446 334 0 0 75z"/>
<glyph glyph-name="masdar-ar" unicode="&#98;" d="M399 111c-26-4-55-8-82-8-108 0-171 56-171 90 0 33 63 82 179 123 7 22 15 44 18 63l-3 0c-67-22-108-45-119-45-15 4-27 11-38 19-15 11-26 26-26 37 19 22 45 34 75 34 18 0 37-4 52-15l11 15c-15 29-45 52-82 55-33-3-63-22-78-52-11-18-19-41-19-63 4-30 19-60 45-71-34-33-52-78-52-126 0-94 74-135 164-135 15 0 30 4 41 8 33 19 63 41 89 63z"/>
<glyph glyph-name="masdar-search" unicode="&#99;" d="M473 98l-114 114c16 27 26 57 26 91 0 97-79 176-176 176-97 0-176-79-176-176 0-97 79-176 176-176 34 0 64 10 91 26l114-113c8-8 21-8 29 0l29 29c9 8 9 21 1 29z m-264 88c-65 0-117 52-117 117 0 65 52 117 117 117 65 0 117-52 117-117 0-65-52-117-117-117z"/>
<glyph glyph-name="masdar-linkedin" unicode="&#100;" d="M374 340c-53 0-77-29-90-49l0-1-1 0c0 0 1 0 1 1l0 42-100 0c2-28 0-300 0-300l100 0 0 168c0 9 0 18 3 24 7 18 24 37 51 37 36 0 51-28 51-68l0-160 99 0 0 172c1 92-49 135-114 134z m-345-306l100 0 0 300-100 0z m51 445c-34 0-57-23-57-52 0-29 22-52 56-52l0 0c35 0 57 23 57 52-1 29-22 52-56 52z"/>
<glyph glyph-name="masdar-email" unicode="&#101;" d="M292 173l104 88 0 135c0 10-8 17-16 17l-248 0c-10 0-16-7-16-17l0-135 104-88z m-36 306l-56-50 112 0z m157-139l0-91-63-53-36-31 97-84-13-13-99 84-86 0-99-84-13 13 97 84-36 31-63 53 0 91-50-43 0-231c0-18 15-33 34-33l346 0c18 0 34 15 34 33l0 231z"/>
<glyph glyph-name="masdar-phone" unicode="&#102;" d="M454 182l-99 0-63-64c-68 38-135 102-175 171 0 1 0 1 0 2l64 64 0 99c0 15-9 25-24 25l-99 0c-15 0-25-10-25-25l0-49c0-176 222-372 372-372l49 0c15 0 25 10 25 25l0 99c0 15-10 25-25 25z"/>
<glyph glyph-name="masdar-mylocation" unicode="&#104;" d="M438 276c-10 85-77 152-162 162l0 41-40 0 0-41c-85-10-152-77-162-162l-41 0 0-40 41 0c10-85 77-152 162-162l0-41 40 0 0 41c85 10 152 77 162 162l41 0 0 40z m-182-162c-79 0-142 63-142 142 0 79 63 142 142 142 79 0 142-63 142-142 0-79-63-142-142-142z m0 223c-45 0-81-36-81-81 0-45 36-81 81-81 45 0 81 36 81 81 0 45-36 81-81 81z"/>
<glyph glyph-name="masdar-screw-1" unicode="&#105;" d="M359 410c-8 20-20 37-38 48-14 9-29 15-44 22l-9 0c-1-5-4-8-4-13-2-5-1-11-1-17l-13 0c-1 10-3 20-4 29l-9 0c-1 0-3-1-4-1-38-9-64-32-79-67-4-8-1-13 8-14 3 0 7 0 10 0l39 0 0-67c-6 0-14 3-14-7 0-9 8-7 14-9l0-13c-6-2-14 2-14-7-1-11 9-8 14-10l0-13c-1 0-1 1-2 1-4-2-11-4-11-8-3-10 8-7 13-10l0-13c-1 0-2 1-2 2-4-3-11-6-11-9-3-10 7-7 13-9l0-14c-5-1-13 2-14-7 0-10 9-7 14-9l0-14c0 1-1 1-2 2-4-3-11-5-11-8-3-11 9-7 13-10l0-13c-6-2-13 2-14-7-1-11 9-7 14-10l0-13c-1 0-1 1-2 1-4-2-11-5-12-8-2-11 9-7 14-10 0-3 1-6 0-9-1-10 3-18 10-26 11-12 21-25 32-38 2 0 4 0 6 0 10 11 19 23 29 34 8 9 15 18 13 31 0 1 0 1 1 2 5 0 13-1 13 7 0 10-8 7-14 9l0 13c1-1 1-1 2-2 4 3 11 5 12 9 2 10-9 6-14 10l0 13 2-2c4 3 11 5 12 9 2 10-9 7-14 9l0 14c1-1 1-1 2-2 4 3 11 5 11 9 3 10-8 7-13 9l0 14c3 0 6-1 8 1 2 1 5 4 6 6 0 2-3 7-5 7-13 0-10 8-8 14 5 3 12 5 12 9 2 10-8 6-13 9l0 14c1-1 2-2 2-2 4 3 11 5 11 8 2 11-8 7-13 10l0 14c1-1 1-2 2-2 4 3 11 5 11 8 3 10-8 7-13 10l0 73c17 0 33 0 49 0 9 1 12 5 9 13z m-79-329c-8-9-15-19-24-29-10 12-20 23-28 35-3 4-1 12-2 19 21-2 40-3 59-4 2-9 1-15-5-21z m6 229l0-15c-20 2-40 3-59 5l0 14c19-1 38-3 59-4z m-59 19l0 68 58 0 0-72c-19 1-39 3-58 4z m59-198l0-15c-20 2-40 3-59 4l0 15c20-1 39-3 59-4z m-59 20l0 14c19-1 39-2 58-4l0-15c-20 2-39 3-58 5z m0 29l0 15c20-1 39-3 59-4l0-15c-21 1-40 3-59 4z m59 85c-20 2-40 3-59 4l0 15c19-1 38-2 58-4 0-5 0-9 1-15z m-1-15l0-14c-19 1-39 2-58 4l0 14c19-1 39-2 58-4z m0-29l0-15c-19 1-38 2-58 4l0 15c19-2 39-3 58-4z m-114 193c15 25 34 41 63 49l0-19c0-6 3-9 9-9 9 0 18 0 27 0 6 0 9 3 9 9l0 19c28-8 47-24 62-49l-170 0z"/>
<glyph glyph-name="masdar-goods" unicode="&#106;" d="M436 383c0 0 0 0 0 0 0 0 0 0 0 0 0 0 0 0 0 0 0 1 0 1 0 1 0 0 0 0 0 0 0 0 0 1 0 1 0 0 0 0 0 0-1 0-1 0-1 1 0 0 0 0 0 0 0 0 0 0 0 0 0 0 0 0 0 0 0 0 0 0-1 0 0 0 0 0 0 1 0 0-1 0-1 0l-44 18c-1 0-1 0-2 1l-25 9c0 1-1 1-1 1l-44 17-117 46c-1 0-3 0-4 0l-117-46c0 0 0 0 0 0 0 0 0 0 0 0-1 0-1 0-1 0 0 0 0 0 0 0 0 0 0-1 0-1 0 0 0 0 0 0-1 0-1 0-1 0 0 0 0 0 0 0 0 0 0-1-1-1 0 0 0 0 0 0 0 0 0 0 0 0 0 0 0-1 0-1 0 0 0 0 0 0 0 0 0 0 0 0 0-1-1-1-1-1 0 0 0 0 0 0 0 0 0-1 0-1l0-299c0-2 2-4 4-5l117-46c0 0 0 0 1 0l115-45c0 0 0 0 0 0 0 0 1 0 1 0 0 0 0 0 0 0 1 0 1 0 1 0 1 0 1 0 1 0 0 0 0 0 1 0 0 0 0 0 0 0 0 0 0 0 0 0l117 44c2 1 4 3 4 6l0 299c-1 0-1 0-1 1z m-67 17l-100-39-6 3-4 1 100 39z m-105-49l0-62-15 5 0 63z m80 59l-100-39-15 6-15 6 67 26 33 13z m-91 36l-100-40-10 4 100 40z m-106-50l0-62-14 5 0 63z m51 72l30-12-101-40-30 12z m-6-376l-105 41 0 137 34-13 0-71c0-2 2-4 4-5l26-10c0-1 1-1 2-1 1 0 2 1 3 1 2 1 3 3 3 5l0 66 33-13 0-137z m-59 98l0 62 14-5 0-63z m59 52l-37 14c0 0 0 0 0 0l-26 10c0 0 0 0 0 0l-12 5-30 12 0 137 34-14 0-71c0-2 2-4 4-5l26-10c0 0 1 0 2 0 1 0 2 0 3 1 1 1 2 3 2 4l0 67 34-13z m6 147l-30 11 101 40 29-12z m110-342l-105 41 0 137 35-14 0-71c0-2 1-4 3-5l26-10c1 0 1 0 2 0 1 0 2 0 3 1 2 1 3 3 3 5l0 66 33-13z m-59 98l0 62 15-6 0-62z m59 51l-105 41 0 137 35-13 0-71c0-3 1-5 3-6l26-9c1-1 1-1 2-1 1 0 2 1 3 1 2 1 3 3 3 5l0 66 33-13z m6 148l-29 11 100 39 30-12z m111-257l-105-40 0 137 105 40 0 0 0 0z m0 149l-105-40 0 137 105 40z"/>
<glyph glyph-name="masdar-bolt-1" unicode="&#107;" d="M385 350l0 129-258 0 0-129 60 0 0-50-10-2 0-20 10 2 0-24-10-1 0-20 10 1 0-25-10-1 0-20 10 1 0-24-10-2 0-20 10 2 0-25-10-1 0-20 10 1 0-21-10-1 0-20 10 1 0-19 9-10 120 0 9 10 0 36 10 1 0 20-10-1 0 21 10 1 0 20-10-1 0 25 10 1 0 20-10-1 0 25 10 1 0 20-10-1 0 24 10 1 0 21-10-1 0 23 10 1 0 20-10-1 0 33z m-60 110l40 0 0-90-40 0z m-138-90l-40 0 0 90 40 0z m19-20l100 0 0-35-100-13z m0-68l100 12 0-23-100-12z m0-43l100 12 0-25-100-12z m0-45l100 12 0-24-100-13z m0-45l100 13 0-25-100-13z m0-45l100 13 0-21-100-13z m100-52l-100 0 0 11 100 13z m0 318l-100 0 0 90 100 0z"/>
<glyph glyph-name="masdar-lathe" unicode="&#108;" d="M132 126l1 0c6 0 12 5 12 12 0 6-6 11-12 11l-1 0c-7 0-12-5-12-11 0-7 5-12 12-12z m349 293c-6 0-11-5-11-12l0-38-12 0 0 34c0 7-5 12-11 12l-90 0c-2 0-4 0-5-1l-54-29c-6-4-11-10-13-16l-44 0c-6 0-11-5-12-11-1-6 5-12 11-12l45 0c2-7 7-12 13-16l54-29c2-1 4-1 5-1l35 0 0-93-55 0 0 40c0 7-5 12-12 12l-110 0c-6 0-11-5-11-12l0-40-83 0 0 60 42 9 45 0c6 0 11 5 11 12l0 46c0 6-5 12-11 12l-35 0 0 23 35 0c6 0 11 5 11 11l0 47c0 6-5 11-11 11l-45 0-42 9 0 20c0 6-5 12-12 12l-78 0c-7 0-12-5-12-12l0-422c0-6 5-12 12-12l416 0c6 0 11 5 11 12l0 301 12 0 0-38c0-6 4-12 10-12 7-1 13 5 13 11l0 100c0 7-5 12-12 12z m-135-89l-37 20c-2 2-4 4-4 7l0 0c0 3 2 6 4 7l37 20z m-173-7l23 0 0-24-23 0z m0 92l23 0 0-23-23 0z m-52 9l29-7 0-120-29-7z m106-188l87 0 0-29-87 0z m-185 220l56 0 0-197-56 0z m0-220l56 0 0-29-56 0z m393-122l-49 0c-7 0-12-5-12-11 0-7 5-12 12-12l49 0 0-35-393 0 0 70 44 0c6 0 11 5 11 12 0 6-5 11-11 11l-44 0 0 35 393 0z m0 93l-20 0 0 92 20 0z m0 116l-66 0 0 69 66 0z m-92-232l1 0c6 0 12 5 12 12 0 6-5 11-12 11l-1 0c-6 0-12-5-12-11 0-7 6-12 12-12z m-167 35c3 0 6 1 8 3 2 3 3 5 3 9 0 3-1 6-3 8-2 2-5 3-8 3-3 0-6-1-8-3-3-2-4-5-4-8 0-4 1-6 4-9 2-2 5-3 8-3z"/>
<glyph glyph-name="masdar-close" unicode="&#109;" d="M468 101l-156 156 156 154c13 15 13 38-2 54-13 16-38 18-55 3l-156-158-156 156c0 0-1 2-3 3-16 15-40 14-55-3-15-16-13-40 3-55l158-156-156-156c-14-15-14-37 0-52 13-16 38-18 55-3l156 156 156-154c0 0 1-2 3-3 16-15 40-14 55 3 15 16 13 40-3 55z"/>
<glyph glyph-name="masdar-bolt-2" unicode="&#110;" d="M365 404c0 0 0 0 0 0l0 14-1 1c-7 12-13 19-18 25l-4 4c-14 20-49 34-87 34-38 0-72-13-87-34l-3-4c-5-6-11-13-19-25l0-1 0-15c-16-14-24-29-24-45l0-22c0-31 31-58 75-71l0-199c0-20 26-36 59-36 33 0 59 16 59 36l0 199c44 13 75 40 75 72l0 21c0 16-8 32-25 46z m-7-46c0-1 0-1 0-1l-48-48 0 54c27 43 42 51 48 52z m-154 4c51 18 97 2 103 0l0-56-103 0z m-1 4c-6 8-10 16-15 22 12-8 27-13 45-15-10-2-20-4-30-7z m75 7c17 2 33 7 45 15-5-6-10-14-15-22-4 1-14 4-30 7z m71 52c0 2-1 4-1 6 2-4 5-8 8-12-2-1-6-3-10-6 1 4 3 8 3 12z m-180 13c1 1 1 1 1 2l4 4c14 19 46 31 81 31 36 0 68-12 82-32l3-4c1 0 1-1 2-1 1-4 3-8 3-13 0-8-4-15-9-22-15-17-45-29-81-29-49 0-89 23-89 51 0 5 1 9 3 13z m-6-7c0-2-1-4-1-6 0-4 2-8 3-13-4 4-8 6-11 7 4 4 6 9 9 12z m-10-73l0 57c6-1 21-9 48-52l0-54-48 48c0 0 0 0 0 1z m155-292c0-16-24-29-52-29-28 0-51 13-51 29l0 10c9-11 28-20 51-20 23 0 43 9 52 20z m0 17c-6-13-27-23-52-23-25 0-46 10-51 23l0 17c9-12 28-20 51-20 23 0 43 8 52 20z m0 24c-6-13-27-23-52-23-25 0-46 10-51 23l0 17c9-12 28-20 51-20 23 0 43 8 52 20z m0 24c-6-13-27-23-52-23-25 0-46 10-51 23l0 17c9-12 28-20 51-20 23 0 43 8 52 20z m0 24c-6-14-27-23-52-23-25 0-46 9-51 23l0 16c9-11 28-19 51-19 23 0 43 8 52 19z m0 24c-6-14-27-24-52-24-25 0-46 10-51 24l0 16c9-12 28-20 51-20 23 0 43 8 52 20z m0 23c-6-13-27-23-52-23-25 0-46 10-51 23l0 17c9-12 28-20 51-20 23 0 43 8 52 20z m0 24c-6-13-27-23-52-23-25 0-46 10-51 23l0 37c16-4 33-6 51-6 19 0 36 2 52 6l0-37z m-52 38c-70 0-126 32-127 72 16-33 67-56 127-56 60 0 111 24 127 56-1-40-57-72-127-72z m127 83c-9-36-62-63-127-63-65 0-118 27-127 63l0 11c0 12 6 24 17 35l0-35c0-2 1-4 3-4 1 0 1 0 1 0l51-51 1-1 107 0 1 1 51 51c0 0 0 0 0 0 2 0 4 2 4 4l0 36c12-11 18-23 18-36z m-81 89c0 0 0 0 1 0 0 1 0 1 0 1 0 0 0 0 0 0 0 0 0 1 0 1 0 0 0 0 0 0 0 1 0 1 0 1 0 0 0 0 0 0-1 0-1 0-1 0l-18 11c0 0-1 0-2 0l-21-12-12 0-21 12c0 0-1 0-2 0l-18-11c0 0 0 0 0 0 0 0 0 0 0 0 0 0 0 0 0-1-1 0-1 0-1 0 0 0 0-1 1-1 0 0 0 0 0 0 0 0 0 0 0 0 0 0 0-1 0-1l21-12 0-6-21-11c0-1 0-1 0-1 0 0 0 0 0 0 0 0 0 0 0 0-1-1-1-1-1-1 0 0 0-1 1-1 0 0 0 0 0 0 0 0 0 0 0 0 0-1 0-1 0-1l18-10c1-1 2-1 2 0l21 12 12 0 21-12c1 0 1-1 1-1 1 0 1 0 2 1l17 10c1 0 1 0 1 1 0 0 0 0 0 0 0 0 0 0 0 0 0 0 0 1 0 1 0 0 0 0 0 1 0 0 0 0 0 0 0 0 0 0 0 0 0 0 0 1-1 1l-20 11 0 6z m-75-39l-14 8 18 10 3-14z m71 8l-15-8-6 4 3 14z m-20 21l-5-23-10 6c0 0-1 0-1 0l-13 0c-1 0-1 0-1 0l-11-6-5 23-19 12 14 8 20-11 2-19c0-1 1-2 2-2 0 0 0 0 0 0 1 0 2 1 2 2l-2 18 9 0-2-18c0-1 0-2 1-2 0 0 1 0 1 0 1 0 1 1 1 2l3 19 19 11 14-8z m-23-49c45 0 81 22 81 48 0 27-36 48-81 48-45 0-81-21-81-48-1-26 36-48 81-48z m13 5c-4-1-9-1-13-1-5 0-9 0-14 1-30 4-53 19-53 37 0 21 30 38 67 38 36 0 66-17 66-38 1-18-22-33-53-37z m-91 43c0 25 35 45 78 45 43 0 77-20 77-45 0-10-6-19-17-27 7 6 10 13 10 21 0 23-31 42-70 42-39 0-71-19-71-42 0-8 4-15 11-21-11 8-18 17-18 27z"/>
<glyph glyph-name="masdar-screw-2" unicode="&#111;" d="M319 435c0 0 0 0 0 0l-27 16-25-15-22 0-25 15-27-16c0 0 0 0 0 0-1 0-1 0-1 0 0-1 0-1 0-1 0-1 0-1 0-1 0 0 0 0 1-1 0 0 0 0 0 0l24-14 0-11-24-14c-1 0 0 0-1 0 0 0 0 0 0 0 0 0 0-1 0-1 0 0 0 0 0-1 0 0 1 0 1 0 0 0 0 0 0-1l27-15 25 14 21 0 26-14 27 15c0 0 0 1 0 1 0 0 0 0 1 0 0 1-1 1-1 1 0 0 1 1 1 1-1 0-1 0-1 0 0 0 0 0 0 1l-24 13 0 11 24 14c0 0 0 0 0 1 1 0 1 0 1 0 0 0 0 0 0 1 0 0 0 0 0 1 0 0 0 0-1 0z m-99-56l-23 13 20 12 9-22z m25 14l-16-9-9 36c0 0 0 1-1 1l-22 13 23 13 24-14 10-40z m2 40l18 0-9-35z m68-41l-23-13-6 3 8 22z m-22 29c-1 0-1-1-1-1l-9-36-16 9-9 0 11 41 23 13 23-13z m-37 61c-64 0-116-31-116-69 0-1 0-1 0-2 0-9 4-18 10-26l51-48c0 0 0 0 0 0l15-246c0-1 0-2 0-2 0-6 2-11 7-15 0 0 1 0 1 0l32-44 31 43c0 0 1 0 1 1 5 4 7 9 8 15 0 1-1 1-1 2l15 242c0 0 0 1 0 1 0 1 0 1 0 2l47 42c10 11 16 23 16 35-1 38-53 69-117 69z m-1-438l-22 31c6-3 14-5 22-5 9 0 17 2 23 5z m31 48c0-1-1-2-1-3 0-3-2-6-4-8-6-4-15-7-26-7-10 0-19 2-25 6 0 1 0 1 0 2-2 1-4 4-4 7 0 1-1 2-1 2l-1 21c7-6 18-10 31-10 14 0 26 4 33 11z m2 26c-5-8-18-13-33-13-14 0-26 5-32 11l-2 28c8-7 20-11 34-11 15 0 27 5 35 12z m2 32c-5-8-19-14-35-14-15 0-28 5-34 12l-2 27c8-6 21-11 36-11 16 0 29 5 37 13z m2 32c-6-8-20-14-37-14-16 0-30 5-36 12l-2 27c8-7 22-12 38-12 16 0 31 6 39 14z m2 32c-6-9-21-15-39-15-17 0-31 5-38 13l-2 27c9-7 23-12 40-12 17 0 32 5 41 14z m2 33c-6-10-22-17-41-17-18 0-33 6-40 15l-2 27c9-8 24-14 42-14 18 0 34 6 43 15z m2 32c-6-10-23-18-43-18-19 0-35 7-42 16l-2 27c9-9 26-15 44-15 19 0 36 7 45 16z m2 32c-6-11-24-18-45-18-20 0-37 6-44 16l-1 22 3-1c11-6 26-10 43-10 17 0 33 4 45 11l1 0z m-7 20c-10-5-23-8-38-8-12 0-24 3-34 7l-31 29c19-8 42-13 66-13 25 0 49 5 68 13z m58 53l-18-16c-21-12-48-18-77-18-28 0-54 6-74 16l-25 24c-6 7-9 15-9 23 0 0 0 0 0 1 1 33 49 60 108 60 60 0 108-28 108-61 0-10-5-20-13-29z"/>
<glyph glyph-name="masdar-screw-3" unicode="&#112;" d="M378 443c-25 26-72 42-122 42-56 0-107-20-129-50-8-11-11-22-11-34l0-50c0-12 3-23 11-34 13-18 37-33 66-41l0-213c0-1 0-2 0-2 5-20 30-34 63-34 33 0 58 15 63 34 0 0 0 1 0 2l0 213c25 7 45 18 59 33 12 12 18 27 18 42l0 50c0 15-6 29-18 42z m-201 16c23 10 50 15 79 15 29 0 56-5 78-14 8-5 16-10 21-16 10-10 14-20 14-31 0-11-4-22-14-32-20-20-58-33-99-33-46 0-87 16-105 40-5 8-8 16-8 24 0 9 3 17 8 25 6 9 16 16 26 22z m132-393c0-15-24-28-53-28-29 0-53 13-53 28l0 12c10-12 30-19 53-19 23 0 43 7 53 19z m0 19c-7-13-28-22-53-22-25 0-46 9-53 22l0 20c10-11 30-19 53-19 23 0 43 8 53 19z m0 28c-7-13-28-22-53-22-25 0-46 9-53 22l0 20c10-11 30-19 53-19 23 0 43 8 53 19z m0 27c-7-12-28-21-53-21-25 0-46 9-53 21l0 21c10-11 30-19 53-19 23 0 43 8 53 19z m0 28c-7-12-28-21-53-21-25 0-46 9-53 21l0 21c10-11 30-19 53-19 23 0 43 8 53 19z m0 28c-7-12-28-21-53-21-25 0-46 9-53 21l0 21c10-11 30-19 53-19 23 0 43 8 53 19z m0 28c-7-12-28-21-53-21-25 0-46 9-53 21l0 21c10-11 30-19 53-19 23 0 43 8 53 19z m0 28c-7-12-28-21-53-21-25 0-46 9-53 21l0 16c10-9 28-14 53-14 25 0 43 5 53 14z m-104 21c16-4 33-6 51-6 18 0 35 2 51 6-8-9-26-15-51-15-25 0-43 6-51 15z m181 78c0-12-5-24-16-35-23-24-66-38-114-38-53 0-100 17-120 45-7 9-10 18-10 28l0 24c1-2 2-4 4-6 21-30 71-49 126-49 49 0 95 16 120 41 4 5 7 9 10 14z m0 35c-3-8-7-15-13-22-24-24-69-39-117-39-54 0-102 18-123 47-3 4-5 9-7 13l0 16c0 9 3 19 10 28 4 5 9 10 16 15-2-1-3-2-4-4-7-9-10-18-10-28 0-9 3-18 10-27 18-25 61-42 108-42 42 0 82 14 102 35 10 11 16 23 16 35 0 11-5 22-14 32 4-3 7-6 10-9 11-11 16-23 16-35z m-206 11c0 0 0 0 0 0 0-1 0-1 0-1 0 0 0 0 0 0-1 0-1-1-1-1 0 0 0 0 1-1 0 0 0 0 0 0 0 0 0 0 0 0 0 0 0-1 0-1l29-17 34 20 20 0 34-20 29 17c0 0 1 0 1 1 0 0 0 0 0 0 0 0 0 0 0 0 0 1 0 1 0 1 0 0 0 1 0 1 0 0 0 0 0 0 0 0 0 0 0 1-1 0-1 0-1 0l-32 19 0 10 32 18c0 1 0 1 1 1 0 0 0 0 0 0 0 0 0 0 0 1 0 0 0 0 0 0 0 1 0 1 0 1 0 0 0 0 0 1 0 0 0 0-1 0 0 0 0 0 0 1l-29 16-34-19-20 0-34 19-29-16c0-1 0-1 0-1 0 0 0 0-1 0 0-1 0-1 0-1 0 0 0 0 0-1 0 0 0 0 0 0 0-1 0-1 0-1 1 0 1 0 1 0 0 0 0 0 0-1l32-18 0-10z m141-2l-24-13-11 6 7 23z m-55 47l31 18 24-14-30-17c0 0 0 0 0 0-1-1-1-1-1-1 0 0 0 0 0 0l-12-35-13 7 0 1-4 0z m-5-1l-4-40-7 0-5 40z m-75 5l23 14 32-18 4-42-3 0-14-8-11 35c0 0 0 0 0 1 0 0-1 0-1 0 0 0 0 0 0 0z m28-35l6-23c0 0 1 0 1 0l-12-7-23 14z"/>
<glyph glyph-name="masdar-screw-4" unicode="&#113;" d="M344 478l-4 2-3 1-5 1-4 1-4 0 0 1-4-1-1 0-57 0-6 1-5-1-59 1-4 0 0 0 0 0-5-1-4 0-4-2-4-1-3-2-5-3 0-68 37 0c5 0 9-4 9-10l0-64 10 0 0-7-9-13 9-10 0-19-9-12 9-11 0-18-9-13 9-10 0-19-9-12 9-11 0-18-9-13 9-11 8-18-5-11 10-9 5-18-4-12 12-9 11-31 2 5 15 12-8 12 3 10 18 15-8 10 6 20 14 13-9 12 5 22 9 11-9 12 0 19 9 11-9 11 0 20 9 11-9 11 0 19 9 11-9 12 0 26 9 0 0 64c0 6 5 10 10 10l36 0 0 68z m-37 2l-3-2-3-2-12 4z m-66-1l15 0 15 0 15-3 14-4 0-61-87 0 0 61 13 4z m-18 0l-12-3-3 2-3 1z m-14-68l-42 0 0 62 2 1 4 2 3 2 4 1 4 0 4 0 4 0 3 0 4-1 4-2 3-1 3-2z m7-95l6 9 12 3 10-5z m32 7c0 0 0 0 0 0l0 1-14 7-12-4 0 6 68 0 0-26-68-21 0 16 18 6c1 0 1 0 1 1l8 13c0 0 0 1-1 1z m8-283l-8 20 16 6z m12 6l-8-7 4 13z m13 36l-43-11 3 8 34 11z m-7 10l-33-10-5 16 43 13z m19 34l-66-16 4 8 55 17z m-8 11l-55-17-7 17 67 21z m12 34l-81-21 6 8 0 0 69 21z m-75-10l0 17 68 22 0-18z m75 51l-81-21 6 9 0 0 69 21z m-75-9l0 17 68 21 0-18z m75 51l-81-21 6 8 69 22z m-75-10l0 17 68 22 0-18z m75 52l-81-21 6 8 69 21z m3 102l0-61-87 0 0 60c0 4-2 7-4 10l94 0c-2-3-3-6-3-9z m45 13l-42 0 0 62 3 1 3 2 4 2 3 1 4 0 4 0 0 1 4-1 4 0 3-1 4-2 3-1 3-2z"/>
<glyph glyph-name="masdar-screw-5" unicode="&#114;" d="M140 484l0-18 75-60 0-18-17-12 17-10 0-16-14-11-1-1 15-9 0-25-14-10-1-1 15-10 0-25-14-10-1-1 15-10 0-25-14-10-1-1 15-10 0-24-14-11-1-1 15-9 0-25-14-10-1-1 17-12 11-19-14-10 23-6 19-35 19 41 23 14-13 8 10 23 13 14-1 0 1 1-1 0-11 7 0 25 12 12-1 1 1 1-1 0-11 7 0 25 12 12-1 1 1 0-1 0-11 7 0 26 12 12-1 0 1 1-1 0-11 7 0 25 12 12-1 1 1 1-1-1-11 7 0 27 12 12-1 0 1 1-1 0-11 7 0 42 74 58 1 1 0 18z m73-104l7 6 0 0 27 5z m53 17l0 0-46-8 0 16 71 0 0-41-71-14 0 18 47 27z m-10-358l-14 26 27 4z m32 45l-60-11 7 5 0 0 45 10z m-9 7l-46-10-11 19 67 14z m21 37l-88-15 8 5 0 1 72 14z m-80-6l0 24 72 15 0-25z m80 52l-88-16 8 6 0 1 72 14z m-80-7l0 25 72 15 0-25z m80 52l-88-15 8 6 0 0 72 15z m-80-6l0 25 72 14 0-25z m80 52l-87-15 7 6 0 0 72 15z m-80-6l0 25 72 14 0-25z m80 52l-87-15 7 5 0 1 72 15 0 0z m-80-7l0 25 72 15 0-25z m80 53l-88-16 8 6 0 0 72 15z m-7 53l-74 0-72 57 217 0z"/>
<glyph glyph-name="masdar-screw-6" unicode="&#115;" d="M344 478l-4 2-3 1-5 1-4 1-4 0 0 1-4-1-1 0-57 0-6 1-5-1-59 1-4 0 0 0 0 0-5-1-4 0-4-2-4-1-3-2-5-3 0-68 37 0c5 0 9-4 9-10l0-64 10 0 0-7-9-13 9-10 0-19-9-12 9-11 0-18-9-13 9-10 0-19-9-12 9-11 0-18-9-13 9-11 8-18-5-11 10-9 5-18-4-12 12-9 11-31 2 5 15 12-8 12 3 10 18 15-8 10 6 20 14 13-9 12 5 22 9 11-9 12 0 19 9 11-9 11 0 20 9 11-9 11 0 19 9 11-9 12 0 26 9 0 0 64c0 6 5 10 10 10l36 0 0 68z m-37 2l-3-2-3-2-12 4z m-66-1l15 0 15 0 15-3 14-4 0-61-87 0 0 61 13 4z m-18 0l-12-3-3 2-3 1z m-14-68l-42 0 0 62 2 1 4 2 3 2 4 1 4 0 4 0 4 0 3 0 4-1 4-2 3-1 3-2z m13-86l12 3 10-5-28-7z m0 2l0 6 68 0 0-26-68-21 0 16 19 6 8 15-15 8z m-7-14l30 8-6-10-17-6z m41-273l-8 20 16 6z m12 6l-8-7 4 13z m-3 23l0 0-18-7-9 7 39 10z m16 13l-43-11 3 8 34 11z m-7 10l-33-10-5 16 43 13z m6 23l0-1-45-13-8 6 63 16z m13 11l-66-16 4 8 55 17z m-8 11l-55-17-7 17 67 21z m5 24l0 0-69-22-6 8 81 21z m7 10l-81-21 6 8 0 0 69 21z m-75-10l0 17 68 22 0-18z m68 42l0 0-68-23-7 8 81 21z m7 9l-81-21 6 9 0 0 69 21z m-75-9l0 17 68 21 0-18z m68 41l-68-22-7 8 81 21z m7 10l-81-21 6 8 69 22z m-75-10l0 17 68 22 0-18z m68 42l-68-22-7 8 81 21z m7 10l-81-21 6 8 69 21z m3 102l0-61-87 0 0 60c0 4-2 7-4 10l94 0c-2-3-3-6-3-9z m45 13l-42 0 0 62 3 1 3 2 4 2 3 1 4 0 4 0 0 1 4-1 4 0 3-1 4-2 3-1 3-2z"/>
<glyph glyph-name="masdar-screw-7" unicode="&#116;" d="M140 484l0-18 75-60 0-18-17-12 17-10 0-16-15-11 15-10 0-25-15-11 15-10 0-25-15-11 15-9 0-25-15-11 15-10 0-25-15-11 15-10 0-24-15-11 17-12 11-19-14-10 23-6 19-35 19 41 23 14-13 8 10 23 13 14-12 8 0 25 12 12-12 9 0 25 12 12-12 8 0 26 12 12-12 8 0 25 12 12-12 9 0 25 12 12-12 8 0 42 74 58 1 1 0 18z m80-98l0 0 27 5-34-11z m46 11l-46-8 0 16 72 0 0-41-72-14 0 18 47 27c0 0 0 1 0 1 0 1-1 1-1 1z m-58-21l48 16-37-22z m48-337l-14 26 27 4z m15 34l0-1-30-5-1 0-12 3 55 10z m17 11l-60-11 7 5 0 0 45 10z m-9 7l-46-10-11 19 67 14z m12 26l-1 0-69-15-11 8 89 15z m9 11l-88-15 8 5 0 1 72 14z m-80-6l0 24 72 15 0-25z m72 42l0-1-72-14-10 6 89 16z m8 10l-88-16 8 6 0 1 72 14z m-80-7l0 25 72 15 0-25z m72 42l0 0-72-15-10 7 89 16z m8 10l-88-15 8 6 0 0 72 15z m-80-6l0 25 72 14 0-25z m72 42l0 0-72-15-10 7 89 15z m8 10l-87-15 7 6 0 0 72 15z m-80-6l0 25 72 14 0-25z m72 42l0 0-72-15-10 7 89 15z m8 10l-87-15 7 5 0 1 72 15 0 0z m-80-7l0 25 72 15 0-25z m72 43l0-1-72-14-10 6 89 16z m8 10l-88-16 8 6 0 0 72 15z m-7 53l-74 0-69 55 212 0z m73 60l-220 0 0 9 221 0 0-9z"/>
<glyph glyph-name="masdar-logo" unicode="&#117;" d="M192 295l-18 30-37-63 35 0z m-1-69l-18 31-36 0 18-31z m184 35l-59 102-36 0 59-102z m-55-35l36 0 17 31-35 0z m-48 0l-77 135-18-31 60-104z m-188-42c0 0-1 0-1 0 0 0-2 0-2 0-2-1-4-1-6-3l-1-1c-3 3-7 4-11 4 0 0-1 0-2-1l-1 1-9-4 0-30 9 0 0 26c1 1 2 2 4 2 2 0 5-1 5-9l0-19 10 0 0 19c0 2-1 5-2 7 0 0 3 2 6 2 2 0 5 0 5-8l0-20 9 0 0 20c1 7-5 14-13 14z m210 75l-60 104-35 0 77-135z m41 1l-59 101-17-31 58-101z m-218-76l-1 0c-1 0-2 0-2 0-2-1-4-1-6-3l-2-1-2-2 4-4 1 1 1 1 2 1c0 0 1 1 2 1 0 0 1 0 1 0 3 0 5 0 5-5-2-1-6-3-8-3-5-2-9-6-9-11 0-5 5-9 12-9l15 0 0 19c1 8-6 15-13 15z m4-28l-5 0c-2 0-3 2-3 4 0 2 1 3 3 4 0 1 3 1 5 2z m152 11c0-10-3-11-6-11l-8 0-7-6 15 0c9 1 16 7 16 16l0 18-10 0z m-10 17l-15 0c-9 0-16-7-16-16l0-18 10 0 0 18c0 9 3 10 6 10l8 0z m183 2l0 0c-9 0-16-7-15-16l0-14-23 0 0 3c0 4 0 11 0 11 1 9-6 16-15 16l0 0c-2 0-4 0-6-1-1 0-2-1-3-1l-26-15 0 15-10 0 0-28-25 0 0 14c0 9-7 17-15 17-6 0-10-3-12-4-1-1-3-3-5-4l5-5c0 0 3 3 6 5 2 0 4 1 5 1 3 0 6-1 6-10l0-14-23 0-6-6 177 0 0 19c1 9-6 17-15 17z m-48-30l-40 0 0 6c0 0 22 13 30 17 2 1 3 1 5 1 2 0 5-1 5-10l0-11z m53 0l-11 0 0 14c0 10 3 10 5 10 3 0 6-1 6-10l0-14z m-300 28c-7 1-13-3-14-9-1-6 3-8 8-11l1-1c2-1 5-3 5-5 0-1-1-3-3-3-3 0-5 1-8 2l-1 1-3-5 1-1c3-1 6-3 10-3l2 0c5 0 11 3 11 9 1 6-3 9-8 12l-1 0c-2 2-5 3-5 5 0 2 2 3 4 3 2 0 4-1 6-3l2-1 3 3 0 1 0 1c-3 3-7 5-10 5z m34-1c0 0-2 1-3 1 0 0-1 0-2 0-8 1-14-5-15-13l0-14c1-5 5-7 12-7l17 0 0 44-8 0 0-11z m0-27l-6 0c-3 0-4 2-4 4l0 10c0 8 3 8 5 8 1 0 2 0 2 0 1 0 1-1 2-1l1-1z m9 134l-17-30 18-32 17 31z m19-106l-1 0c-1 0-1 0-2 0-2-1-3-1-6-3l-1-1-3-2 5-4 0 1 2 1 1 1c1 0 2 1 2 1 1 0 2 0 2 0 2 0 4 0 5-5-2-1-7-3-8-3-5-2-9-6-9-11 0-5 4-9 12-9l14 0 0 19c1 8-5 15-13 15z m4-28l-5 0c-1 0-3 2-3 4 0 2 1 3 3 4 1 1 3 1 5 2z"/>
<glyph glyph-name="masdar-logomark" unicode="&#118;" d="M128 257l-24 41-11 20-74-128 70 0z m-110-76l36-62 71 0-35 62z m79 5l36-62 35 61-35 62z m325 4l71 0-117 203-71 0 94-164z m-38-71l72 0 35 62-71 0z m-87 270l-36-62 81-140c0 0 0 0 0 0l36-62 35 62z m-45-206l-119 206-35-62 80-139c0 0 0-1 0-1l40-68 71 0-37 64c0 0 0 0 0 0z m-111 210l5-8 32-56c0 0 0 0 0 0l82-141c0 0 0 0 0-1l37-64 36 62-121 208z"/>
<glyph glyph-name="masdar-bit-1" unicode="&#119;" d="M288 479l-64 0c-2 0-4-2-4-5l0-122c0-11 5-21 8-26-4-5-8-13-8-27l0-66c0-12 6-22 8-26-4-6-8-14-8-28l0-67c0-11 5-21 8-25-4-5-7-12-8-23 0-1 1-3 2-4l31-26c1 0 2-1 3-1 1 0 2 1 3 1l31 26c1 1 2 2 2 3 0 11-6 20-10 25 5 8 10 16 10 24l0 60c0 15-6 25-9 30 6 8 9 15 9 23l0 70c0 11-5 22-8 26 5 8 8 15 8 23l0 130c0 3-2 5-4 5z m-5-414l-25-20c-2 9 6 20 15 31 2 1 3 3 4 5 3-4 6-9 6-16z m0 107l0-15c0-7-14-23-28-39-7-7-14-15-21-24-3 4-5 11-5 17l0 16c0 10 4 15 8 20 0 1 1 1 1 2 10 11 17 20 24 27 6 7 11 13 15 18 3-4 6-11 6-22z m0 104c0-6-14-22-28-38-6-7-14-15-21-24-2 4-5 11-5 19l0 12c0 10 4 15 8 20 0 1 1 1 1 2 10 11 17 20 24 27 6 8 12 14 16 20 3-5 5-12 5-20z m0 120c0-6-14-23-28-38-6-7-14-15-21-24-2 4-5 11-5 18l0 118 54 0z"/>
<glyph glyph-name="masdar-compass" unicode="&#120;" d="M427 213l-35 0 0-9-42 0-53 139c11 11 19 28 19 44 0 30-19 53-44 59l0 21c0 11-7 17-17 17-11 0-17-8-17-17l0-21c-25-6-46-29-46-59 0-16 6-31 17-42l-53-141-38 0 0 9-36 0c-12 0-23-9-23-17 0-8 11-17 23-17l36 0 0 9 34 0-23-63 4 6-4-11c0 0-11-27 8-46l0-46 59 158 48 0 0-24c0-6 4-10 11-10 6 0 10 4 10 10l0 24 49 0 59-156 0 46c21 17 8 46 8 46l-23 64 35 0 0-9 36 0c13 0 23 9 23 17 1 8-12 19-25 19z m-172 200c15 0 25-11 25-26 0-14-10-25-25-25-15 0-25 11-25 25 0 15 10 26 25 26z m10-209l0 24c0 6-4 10-10 10-7 0-11-4-11-10l0-24-42 0 46 122 13 0 46-122z"/>
<glyph glyph-name="masdar-warehouse" unicode="&#121;" d="M220 385l14 0 0 15-14 0z m29 0l14 0 0 15-14 0z m201-323l22 0 0 115-22 0 0 189 11-4 21 42-226 75-226-75 21-42 11 4 0-319-29 0 0-14 446 0 0 14-29 0z m7 100l0-86-7 0 0 86z m-399 218l-8 15 206 69 206-69-8-15-198 63z m68-333l0 194 72 0 0-165-57 0 0-14 72 0 0 208 14 0 0-162c-9-8-14-19-14-32 0-11 4-21 11-29l-98 0z m130 0c-16 0-29 13-29 29 0 16 13 29 29 29 16 0 29-13 29-29 0-16-13-29-29-29z m41 156l-10-10 9-9-28-28 29 107 83 0 27-75-88-40-39 0 26 26 9-10 11 11z m-54-86c-1 0-1 0-2 0l0 124 35 0z m45-70c4 4 7 9 9 15l69 0c2-6 5-11 9-15z m119 0c-16 0-29 13-29 29 0 16 13 29 29 29 16 0 29-13 29-29 0-16-13-29-29-29z m29 61c-8 7-18 11-29 11-24 0-43-19-43-43l-65 0c0 23-18 42-41 43l4 14 60 0 90 42 4-13 20 0z m0 69l-10 0-30 86 11 0 0 14-137 0 0-14 12 0-2-7-39 0 0 14 15 0 0 14-72 0 0-14 14 0 0-14-86 0 0-209-36 0 0 259 360 0 0-129z m0 144l-360 0 0 49 180 58 180-58z m-144 79l-14 0 0-15 14 0z"/>
<glyph glyph-name="masdar-bolt-3" unicode="&#122;" d="M410 394l-1 1c-17 27-35 46-38 49-24 24-68 39-115 39-47 0-91-15-115-39 0 0-21-21-38-49l-1-1 0-87 72-73 0-156c0-28 36-50 82-50 46 0 82 22 82 50l0 156 72 73z m-24 16c3-4 7-10 11-16-4-1-8-3-14-8 2 6 3 12 3 18 0 2 0 4 0 6z m-251 11c8 10 14 16 14 16 21 22 62 36 107 36 44 0 86-14 107-36 1-1 6-6 13-15 3-6 5-12 5-18 0-10-4-20-10-29-3-2-5-5-8-8-22-21-61-35-107-35-46 0-86 15-108 36-2 2-4 4-6 6-7 9-11 19-11 30 0 6 1 12 4 17z m-9-11c0-2 0-4 0-6 0-6 1-12 3-18-6 5-11 7-14 8 4 6 7 11 11 16z m53-166l-66 67 0 78c4-1 13-5 27-20 1-1 2-2 3-3 9-11 22-27 36-50l0-72z m-17 107c16-10 37-17 61-21-13-2-27-5-40-10-8 12-15 23-21 31z m166-273c0-21-33-39-72-39-39 0-72 18-72 39l0 13c13-16 40-27 72-27 32 0 59 11 72 27z m0 23c-9-18-38-31-72-31-34 0-63 13-72 31l0 23c13-15 40-27 72-27 32 0 59 12 72 27z m0 33c-9-18-38-31-72-31-34 0-63 13-72 31l0 23c13-16 40-27 72-27 32 0 59 11 72 27z m0 33c-9-18-38-31-72-31-34 0-63 13-72 31l0 23c13-15 40-27 72-27 32 0 59 11 72 27z m0 33c-9-18-38-31-72-31-34 0-63 13-72 31l0 24c13-16 41-27 72-27 31 0 59 11 72 27z m-141 29l138 0c-10-16-38-27-69-27-31 0-59 11-69 27z m141 10l-144 0 0 76c70 25 133 4 144 0z m-39 91c23 3 45 11 61 21-6-8-13-19-21-31-5 2-20 7-40 10z m44-86l0 72c14 23 26 39 36 50 1 1 2 2 4 4 13 14 21 18 26 20l0-79z"/>
<glyph glyph-name="masdar-bit-2" unicode="&#65;" d="M208 479l0-419 48-27 48 27 0 419z m80-410l-32-18-32 18 0 10c0 6 22 18 35 25 11 5 21 11 29 17z m0 76c0-7-23-20-36-27-11-5-20-11-28-16l0 55c0 6 22 18 35 25 11 6 21 11 29 17l0-54z m0 78c0-7-23-19-36-27-11-5-20-10-28-16l0 55c0 6 22 18 35 25 11 6 21 11 29 17l0-54z m0 78c0-7-23-19-36-27-11-5-20-10-28-16l0 205 64 0 0-162z"/>
<glyph glyph-name="masdar-bolt-nut" unicode="&#66;" d="M322 378l53 0 0 78-38 23-162 0-38-23 0-78 53 0c3-4 5-10 5-15l0-24-7-1c-3 0-6-2-5-6 0-3 3-6 6-6l0 0 6 1 0-13-7-1c-3 0-6-3-5-6 0-3 3-6 6-6l0 0 6 1 0-13-7-1c-3 0-6-3-5-6 0-3 3-6 6-6l0 0 6 1 0-13-7-1c-3 0-6-3-5-6 0-3 3-6 6-6l0 0 6 1 0-13-7-1c-3 0-5-3-5-6l-8 0-38-23 0-54 38-24 8 0c1-2 3-4 6-4l0 0 6 0 0-13-7-1c-3 0-6-2-5-6 0-3 3-6 6-5l0 0 6 0 0-13-7-1c-3 0-6-2-5-6 0-3 3-6 6-6l0 0 6 1 0-13-5 0c-3-1-5-3-5-7 0-3 3-5 6-5l1 0 8 1 9-21 94 0 14 30 0 2 3 0c3 1 6 3 5 7 0 3-3 5-6 5l-2 0 0 13 3 0c3 1 6 3 5 7 0 3-3 6-6 5l-2 0 0 13 3 1c3 0 6 3 6 6-1 3-4 6-7 6l-2-1 0 6 20 0 39 23 0 54-39 24-20 0 0 6 3 0c4 1 6 4 6 7-1 3-3 6-7 5l-1 0 0 13 3 0c3 1 5 4 5 7 0 3-3 6-7 5l-1 0 0 13 3 0c3 1 5 4 5 7 0 3-3 6-6 5l-2 0 0 13 3 0c3 1 6 4 5 7 0 3-3 6-6 5l-2 0 0 13 3 0c3 1 6 4 5 7 0 3-3 6-6 5l-2 0 0 12c-1 5 1 11 4 15z m-1 72l15 16 27-17 0-59-42 0z m-49 17l37-18 0-59-107 0 0 59 38 18z m-20-234l53 5 0-5z m20-12l37-19 0-41-37-18-32 0-37 18 0 41 37 19z m-65 19l0 13 98 10 0-13z m0 25l0 13 98 10 0-13z m0 25l0 13 98 10 0-13z m0 25l0 13 98 10 0-13z m0 25l0 23c0 5-2 11-4 15l106 0c-2-4-4-9-4-15l0-13z m-17 50l-42 0 0 59 28 17 14-16z m1 77l22 0-15-7z m-1-307l-14-15-28 17 0 40 28 17 14-15z m23 61l-15-7-7 7z m-22-78l7 8 15-8z m104-98l-78 0-5 9 92 9z m-88 21l0 13 98 9 0-13z m0 25l0 13 98 9 0-13z m0 25l0 13 29 2 69 0 0-6z m92 27l15 8 8-8z m38 76l27-17 0-40-27-17-16 15 0 44z m-15 2l-8-8-15 8z m-8 239l-15 7 22 0z"/>
<glyph glyph-name="masdar-bolt-4" unicode="&#67;" d="M336 477l-160 0-38-24 0-77 52 0c3-4 5-9 5-15l0-23-6 0c-3 0-6-3-6-7 0-3 3-6 7-6l0 0 5 0 0-11-6-1c-3 0-6-3-6-6 0-4 3-7 7-7l0 0 5 1 0-12-6 0c-4 0-7-3-6-7 0-4 3-7 6-6l1 0 5 0 0-11-6-1c-4 0-7-3-7-7 1-3 4-6 7-6l1 0 5 1 0-12-6 0c-4-1-7-4-7-7 0-4 4-7 7-7l1 0 5 1 0-11-7-1c-3 0-6-3-6-7 0-3 3-6 7-6l1 0 4 0 0-11-6-1c-3 0-6-3-6-6 0-4 3-7 7-7l0 0 5 1 0-11-6-1c-4 0-6-3-6-7 0-3 3-6 7-6l0 0 5 1 0-12-6 0c-4-1-7-4-6-7 0-4 3-7 6-6l1 0 5 0 0-11-6-1c-4 0-7-3-7-7 1-3 4-6 7-6l1 0 5 0 0-11-6-1c-4 0-7-3-7-6 0-4 3-7 7-7l1 0 5 1 0-12-5 0c-3 0-6-3-6-7 0-3 3-6 7-6l1 0 7 1 10-20 93 0 14 30 0 1 2 0c4 1 6 4 6 8 0 3-4 6-7 6l-1-1 0 12 2 0c4 0 6 4 6 7 0 4-4 6-7 6l-1 0 0 11 2 0c4 1 6 4 6 8 0 3-4 6-7 6l-1-1 0 12 2 0c4 0 6 4 6 7 1 3-2 6-6 6l-1 0 0 11 3 0c3 1 6 4 6 7-1 4-4 7-8 6l-1 0 0 12 3 0c3 0 6 3 6 7-1 4-4 6-8 6l-1 0 0 11 3 0c3 1 6 4 6 8-1 3-4 6-8 5l-1 0 0 12 3 0c3 0 6 4 6 7-1 4-4 6-8 6l-1 0 0 11 3 0c3 0 6 4 6 7-1 4-4 6-8 6l-1 0 0 11 3 1c3 0 6 3 6 7-1 3-4 6-8 6l-1 0 0 11 3 0c3 0 6 4 6 7-1 4-4 7-8 6l-1 0 0 12 3 0c3 0 6 3 6 7-1 3-4 6-8 6l-1 0 0 11c1 6 3 11 6 15l53 0 0 77z m-145-89l-41 0 0 58 26 17 15-15z m7 70l-7 7 22 0z m96-410l-76 0-4 8 88 9z m10 30l-95-9 0 12 95 9z m0 25l-95-9 0 11 95 9z m0 24l-95-9 0 12 95 9z m0 25l-95-9 0 11 95 9z m0 25l-95-10 0 12 95 9z m0 24l-95-9 0 12 95 9z m0 25l-95-9 0 11 95 9z m0 25l-95-10 0 12 95 9z m0 24l-95-9 0 11 95 10z m0 25l-95-10 0 12 95 9z m0 24l-95-9 0 11 95 10z m0 38l0-13-95-9 0 22c-1 5-2 9-4 14l102 0c-2-5-3-9-3-14z m5 26l-106 0 0 58 37 19 32 0 37-19 0-58z m5 70l-15 7 22 0z m48-70l-41 0 0 60 15 15 26-17z"/>
<glyph glyph-name="masdar-map" unicode="&#68;" d="M294 68c3 0 5 2 5 5l0 76c0 2-2 4-4 5l-76 25c-2 1-5 0-7-3-1-3 1-6 4-7l72-24 0-72c0-3 2-5 6-5z m-30 186c1-1 3-3 5-3 2 0 4 1 5 3l42 52c13 14 37 57 37 87 0 46-37 84-85 84-46 0-84-38-84-84 0-32 27-74 38-87z m5 211c40 0 73-33 72-72 0-26-23-66-35-80l-37-46-37 46c-14 18-35 55-35 80 0 39 32 72 72 72z m0-104c18 0 32 15 32 32 0 17-15 32-32 32-18 0-32-15-32-32 0-17 14-32 32-32z m0 52c11 0 20-9 20-20 0-11-9-20-20-20-11 0-20 9-20 20 0 11 9 20 20 20z m139-101c-6 4-12 6-18 5l-76-22c-3 0-4-2-4-5l0-108c0-2 0-4 2-5 1-1 3-1 5-1l76 22c3 1 4 4 4 6-1 3-4 5-7 4l-69-19 0 97 71 20c4 1 7-1 9-2 4-4 7-9 7-14l0-206c0-7-6-12-18-16l-75-21-113 41 0 94c0 1-1 3-3 4-1 1-3 1-5 1l-76-22c-2-1-4-4-3-6 1-3 3-5 6-4l69 19 0-90c0-2 2-4 4-5l120-43c0 0 1-1 1-1l2 0 76 22c7 3 26 9 26 26l0 207c-1 8-5 17-11 22z m-87-244l0 77 72 20c2 1 4 4 3 7-1 2-3 4-6 3l-76-21c-2-1-4-3-4-6l0-81c0-3 2-5 5-5 3 0 6 2 6 6z m-202 130c-3-1-5-4-4-7 1-2 3-4 5-4l2 0 54 16c3 1 5 4 4 7-1 3-4 5-7 4z m54-115l-54-15c-3-1-5 0-8 1-4 3-7 10-7 15l0 206c0 7 6 12 18 16l76 22c3 0 5 3 4 6-1 3-4 4-7 4l-76-22c-7-2-26-8-26-26l0-206c0-10 5-19 12-24 4-2 7-4 12-4 1 0 3 0 5 0l54 16c3 1 5 4 4 7-1 3-4 5-7 4z m126 180c0 3-2 5-5 5-4 0-6-2-6-5l0-74-87 29 0 93c0 4-2 6-5 6-3 0-6-2-6-6l0-97c0-2 2-4 4-5l98-33c0 0 1 0 2 0 1 0 2 0 3 1 1 1 2 3 2 4z"/>
<glyph glyph-name="masdar-wall-plug" unicode="&#69;" d="M332 323c-1 1-3 1-4 0-15-21-26-46-32-71 0-3-2-5-5-5l-7 0c-1 1-2 2-3 3-4 6-3 14 3 18l19 10 2 3 0 32-13 8c-1 0-2 1-2 2l0 22c0 1 1 2 2 2l14 9c1 0 2 1 2 2l0 140-104 0 0-140c0-1 1-2 2-2l15-9c0 0 1-1 1-2l0-22c0-1-1-2-1-2l-13-8 0-31 2-3 18-10c6-4 7-13 3-19-1-1-2-2-3-3l-7 0c-2 0-5 2-5 5-6 25-17 50-32 71-1 1-3 1-4 1-3-1-4-4-4-6 16-21 32-61 32-76l0-40c0-1 0-2 1-2l19-13c6-3 8-10 5-16-1-2-3-3-5-4l-18 0c-1 0-2-2-2-3l0-46c0-1 0-1 1-2l19-12c5-4 7-11 3-17-1-1-2-2-3-3l-18 0c-1 0-2-1-2-2l0-43c0 0 0-1 0-1l15-23c1-1 2-1 2-1l23 0c2 0 3 1 3 3l0 99 11 0 0-99c0-2 1-3 3-3l22 0c1 0 2 0 3 1l15 23c0 0 0 1 0 1l0 43c0 1-1 2-2 2l-18 0c-1 1-2 2-3 3-4 5-3 13 3 17l19 12c1 1 1 1 1 2l0 46c0 1-1 3-2 3l-18 0c-2 1-4 2-5 4-3 6-1 13 5 16l19 13c1 0 1 1 1 2l0 40c0 15 16 55 31 76 0 2-1 5-4 5z m-70-178l-12 0 0 232c0 4 3 8 6 8 3 0 6-4 6-8l0-232z"/>
<glyph glyph-name="masdar-phillips-plus-minus" unicode="&#70;" d="M482 256c0 12-1 23-3 34 0 0 0 0 0 0-2 14-5 27-9 39 0 0 0 0 0 0-13 37-35 70-64 95-1 1-2 2-3 3-9 8-18 14-28 20-2 2-3 3-5 4-10 5-20 10-31 14-1 1-3 2-6 3-10 4-22 7-33 9-2 0-3 1-5 1-12 2-25 3-38 3-13 0-26-1-38-3-2 0-3 0-5-1-11-2-23-5-34-9-2-1-4-2-6-3-10-4-20-9-30-14-2-1-4-2-6-4-9-6-19-12-27-20-1-1-2-2-3-3-29-25-51-58-64-95 0 0 0 0 0 0-4-12-7-25-10-39 0 0 0 0 0 0-1-11-2-22-2-34 0-20 2-40 8-60 0-3 2-6 3-9 1-4 3-7 4-10 3-9 7-17 11-26 2-3 4-6 6-10 4-7 9-15 14-22 3-3 6-7 9-10 5-6 10-12 16-17 4-3 8-7 12-10 5-5 11-9 17-13 5-3 9-6 14-9 6-3 12-6 18-9 6-2 11-5 17-7 7-3 14-4 21-6 6-1 10-3 16-4 13-2 26-4 39-4 13 0 26 2 38 4 2 0 3 0 5 1 11 2 22 5 33 9 3 1 4 2 6 2 11 5 21 10 31 15 2 1 3 2 5 4 10 5 19 12 28 20 1 1 2 2 3 3 29 25 51 58 64 94 0 0 0 0 0 1 4 12 7 25 9 39 0 0 0 0 0 0 2 11 3 22 3 34z m-14-34l-166 0c-6 0-11-5-11-11l0-138-68 0 0 138c0 6-5 11-11 11l-166 0c-2 11-3 23-3 34 0 12 1 23 3 34l166 0c6 0 11 5 11 11l0 138 68 0 0-138c0-6 5-11 11-11l165 0c2-11 3-22 3-34 1-12-1-23-2-34z"/>
<glyph glyph-name="masdar-high-torq" unicode="&#71;" d="M478 302l0 1-1 0c-22 102-112 178-220 178-125 0-225-101-225-225 0-124 100-225 225-225 109 0 200 77 221 179 3 15 4 30 4 46 0 16-1 31-4 46z m-12-80c-169 19-298 10-420 0 0 2 0 5-1 9l0 51c0 3 1 6 1 8 150-21 270-20 420 0 6-17 2-54 0-68z"/>
<glyph glyph-name="masdar-five-lobe" unicode="&#72;" d="M255 318c-34 0-61-28-61-62 0-34 27-62 61-62 35 0 63 28 63 62 0 34-28 62-63 62z m2 163c-125 0-225-101-225-225 0-124 100-225 225-225 124 0 225 101 225 225 0 124-101 225-225 225z m138-329c-15-20-38-27-38-27 0 0-31 23-65 9-33-13-45-46-45-46 0 0-21-9-47 1-26 11-36 30-36 30 0 0 12 45-12 67-24 22-52 20-52 20 0 0-20 18-18 49 2 32 16 46 16 46 0 0 31 1 52 21 21 20 12 69 12 69 0 0 15 22 38 28 23 7 43 0 43 0 0 0 21-32 46-45 26-14 68 9 68 9 0 0 12 1 35-24 23-24 16-49 16-49 0 0-27-29-29-54-1-25 31-58 31-58 0 0 0-27-15-46z"/>
<glyph glyph-name="masdar-torx-bo" unicode="&#73;" d="M257 324c-38 0-68-31-68-68 0-37 30-68 68-68 37 0 67 31 67 68 0 37-30 68-67 68z m0 157c-124 0-225-101-225-225 0-124 101-225 225-225 124 0 225 101 225 225 0 124-101 225-225 225z m152-261c-9-4-23-11-29-13-5-4-8-7-12-13l0-1c-4-7-4-10-4-17 1-6 2-22 4-31 3-16 5-41-14-52-19-11-39 4-52 14-7 6-21 15-26 18-5 4-10 5-17 5l-1-1c-7 0-11-1-16-5-5-3-18-12-26-19-12-11-32-24-51-14-19 11-17 36-14 52 2 10 3 26 3 32 0 6-1 11-5 17l-1 2c-4 6-7 8-13 11-5 3-20 10-29 13-16 5-37 16-37 38-1 21 22 32 38 37 9 4 24 10 29 13 6 3 9 7 13 13l-1 1c4 7 4 10 4 17 0 6-2 22-4 31-3 16-4 41 15 52 18 11 39-4 51-15 8-6 21-15 26-18 6-4 10-5 18-5l0 1c8 0 11 2 17 5 5 3 18 13 25 19 12 11 33 24 52 13 19-10 16-35 13-52-1-9-2-25-3-31 0-7 2-11 5-18l1 0c4-6 7-8 13-11 5-3 20-10 29-13 15-5 37-16 37-38 1-21-23-32-38-37z"/>
<glyph glyph-name="masdar-spanner" unicode="&#74;" d="M257 481c-124 0-225-101-225-225 0-124 101-225 225-225 124 0 225 101 225 225 0 124-101 225-225 225z m0-367c-20 0-37 16-37 37 0 20 17 37 37 37 20 0 37-17 37-37 0-21-17-37-37-37z m0 210c-20 0-37 17-37 37 0 21 17 37 37 37 20 0 37-16 37-37 0-20-17-37-37-37z"/>
<glyph glyph-name="masdar-bit-3" unicode="&#75;" d="M288 479l-64 0c-2 0-4-2-4-5l0-122c0-11 5-21 8-26-4-5-8-13-8-27l0-66c0-12 6-22 8-26-4-6-8-14-8-28l0-67c0-11 5-21 8-25-4-5-7-12-8-23 0-1 1-3 2-4l31-26c1 0 2-1 3-1 1 0 2 1 3 1l31 26c1 1 2 2 2 3 0 11-6 20-10 25 5 8 10 16 10 24l0 60c0 15-6 25-9 30 6 8 9 15 9 23l0 70c0 11-5 22-8 26 5 8 8 15 8 23l0 130c0 3-2 5-4 5z m-5-414l-25-20c-2 9 6 20 15 31 2 1 3 3 4 5 3-4 6-9 6-16z m0 47c0-10-8-21-16-31-9-10-17-21-18-33l-20 17c1 11 5 16 9 21 8 10 16 19 23 27 9 10 17 18 22 25z m0 60l0-15c0-7-14-23-28-39-7-7-14-15-21-24-3 4-5 11-5 17l0 16c0 10 4 15 8 20 0 1 1 1 1 2 10 11 17 20 24 27 6 7 11 13 15 18 3-4 6-11 6-22z m0 53c0-11-6-19-28-43-6-8-14-17-23-28l-2-2c0-1-1-1-1-2l0 29c0 14 5 21 9 27 8 9 16 18 23 26 9 10 17 19 22 26z m0 51c0-6-14-22-28-38-6-7-14-15-21-24-2 4-5 11-5 19l0 12c0 10 4 15 8 20 0 1 1 1 1 2 10 11 17 20 24 27 6 8 12 14 16 20 3-5 5-12 5-20z m0 67c0-11-6-19-28-43-6-8-14-17-23-28l-2-2c0 0-1-1-1-2l0 31c0 15 5 21 9 27 8 9 16 18 23 26 9 10 17 19 22 26l0-35z m0 53c0-6-14-23-28-38-6-7-14-15-21-24-2 4-5 11-5 18l0 118 54 0z"/>
<glyph glyph-name="masdar-slotted" unicode="&#77;" d="M482 256c0 12-1 25-3 37l0 0-1 8c0 1 0 1 0 1-3 12-6 23-11 34 0 1-1 3-1 5-5 10-10 20-15 30-1 2-2 3-4 5-6 10-12 19-20 27 0 1-1 2-2 3-16 18-36 34-57 46-11 6-22 11-33 15-1 1-2 1-3 1-11 4-23 7-34 10-2 0-3 0-5 0-12 2-24 3-36 3-13 0-25-1-37-3-1 0-3 0-4 0-12-3-23-6-34-10-1 0-2 0-3-1-35-13-66-34-90-62-1 0-2-1-3-2-7-9-14-18-20-27-1-2-2-4-3-5-6-10-11-20-15-30-1-2-1-4-2-5-4-11-8-23-10-34 0-1 0-1 0-1l-2-8 0 0c-1-12-3-25-3-37 0-13 2-25 3-37l0 0 2-9c0 0 0 0 0 0 2-12 6-23 10-34 1-2 1-3 2-5 4-10 10-21 15-30 1-2 2-3 3-5 6-10 13-19 21-28 0 0 1-1 1-2 25-27 56-48 91-62 1 0 2 0 3-1 11-4 22-7 34-9 1 0 3 0 4-1 12-1 24-3 37-3 12 0 24 1 36 3 2 1 3 1 4 1 12 2 24 5 35 9 1 1 2 1 3 1 35 13 66 35 90 62 1 1 1 2 2 2 8 9 14 18 20 28 2 2 2 3 3 5 6 9 11 19 15 30 1 2 2 3 2 5 4 11 8 22 10 34 0 0 0 0 0 0l2 9 0 0c2 12 3 25 3 37z m-14-37l-422 0c-2 12-4 24-4 37 0 12 2 25 4 37l422 0c2-12 3-24 3-37 0-12-1-25-3-37z"/>
<glyph glyph-name="masdar-marker-1" unicode="&#78;" d="M257 484c-93 0-168-80-168-174 0-34 8-66 23-97 57-101 147-185 147-185 0 0 78 88 139 183 17 33 27 67 27 101 0 94-76 172-168 172z m-97-101l6-12 15-26-23-40-42 0z m-23-118l-21 36 42 0 21-36z m46 3l-21 35 21 36 21-36z m51-5l0 2-24 40-48 82 21 36 70-122 21-38-40 0z m46 5l-21 37-48 85-19 31-2 4 42 0 71-122z m27 37l-48 82 21 36 69-120-21-35z m68-40l-42 0 21 36 42 0z m-19 43l-15 23-57 97 42 0 70-120-40 0z"/>
<glyph glyph-name="masdar-bolt-5" unicode="&#79;" d="M477 148l-179 179 20 63c1 5 0 9-3 13l-69 76c-3 4-9 6-14 3l-78-28c-2-1-4-2-6-3l-90-90c-1-2-2-4-3-6l-25-77c-1-5 0-11 4-14l75-67c3-3 8-4 13-3l62 19 179-179c15-15 59 4 85 29 25 26 44 70 29 85z m-240 294c1 2 4 3 6 1l46-51c1-1 1-2 0-3l-16-51c-1-3-4-3-5-2l-45 49c-1 1-1 2-1 3z m-175-150l17 51c0 1 0 1 1 2l85 85c0 0 1 0 1 1l53 19c3 1 5-2 5-4l-15-54c0 0-1-1-1-1l-87-87c-1-1-1-1-2-1l-53-16c-2-1-4 2-4 5z m113-54l-52-16c-2 0-3 0-4 1l-49 45c-2 2-1 5 2 6l53 15c1 1 2 0 3-1l49-44c2-3 0-6-2-6z m18 10l-53 50c-2 2-2 4 0 5l70 70c1 1 3 1 4-1l50-53c1-2 1-4 0-5l-66-66c-2-2-4-2-5 0z m19-25l76 76 20-19c-4-9-14-27-32-45-18-18-35-27-44-31z m31-31c15 7 32 20 44 32 12 12 25 29 32 44l19-19c-4-10-13-28-31-45-17-18-35-27-45-31z m32-31c15 6 32 19 44 31 12 13 25 30 32 45l18-19c-3-10-13-29-29-46-17-17-36-27-47-30z m30-31c15 6 33 18 46 31 13 14 24 30 31 46l18-19c-3-11-11-30-29-48-18-18-36-26-47-28z m49-50l-18 18c15 6 32 17 46 30 14 14 24 31 30 46l18-17c-2-12-10-31-28-49-16-17-37-25-48-28z m75 3c-19-19-42-26-49-27l-13 12c16 5 34 15 47 29 13 13 24 31 29 47l13-12c-1-8-8-31-27-49z"/>
<glyph glyph-name="masdar-package" unicode="&#80;" d="M478 396l1 0-223 87-222-88-1 1 0-280 223-87 223 87 0 280z m-222 70l76-27-206-80-70 28z m-91-384l-42 16-74 29 0 245 73-28 0-62 6 2 5-6 6 2 6-7 5 2 8-8 0 62 7-2 83-33 0-245z m10 258l200 81 83-33-202-80z m288-213l-199-79 0 246 199 78z"/>
<glyph glyph-name="masdar-torq-set" unicode="&#81;" d="M453 364c-38 70-112 117-196 117-85 0-159-47-196-117-19-33-29-70-29-110 0-123 100-223 225-223 124 0 225 100 225 223 0 40-11 78-29 110z m-15-114l-117 0 0-182-64 0 0 118-182 0 0 63 118 0 0 185 64 0 0-119 181 0z"/>
<glyph glyph-name="masdar-torx-plus" unicode="&#82;" d="M257 481c-124 0-225-101-225-225 0-124 101-225 225-225 124 0 225 101 225 225 0 124-101 225-225 225z m175-248c-8-14-16-16-26-18-3-1-22-5-27-10-5-6-10-14-10-14 0 0-4-8-7-16-2-6 4-24 5-28 3-9 6-17-2-30-2-4-19-13-19-13 0 0-17-11-21-11-16 0-22 6-29 13-3 3-16 17-22 18-8 2-17 2-17 2 0 0-9 0-17-2-7-1-19-15-22-18-7-7-12-14-28-14-3 0-21 11-21 11 0 0-17 10-19 13-9 14-6 22-4 31 1 4 7 22 5 29-2 7-6 15-6 15 0 0-5 8-11 14-4 5-23 9-27 10-9 2-18 3-25 17-2 4-2 23-2 23 0 0 0 20 2 24 7 14 16 16 25 18 4 1 23 5 27 11 6 6 10 13 10 13 0 0 5 8 7 16 2 6-4 24-5 28-2 9-6 17 2 30 3 4 20 13 20 13 0 0 17 11 21 11 16 0 22-6 29-13 2-3 15-17 22-18 8-2 17-2 17-2 0 0 9 0 17 2 6 1 19 15 22 18 7 7 12 14 27 13 4 0 21-10 21-10 0 0 18-10 20-13 8-14 6-22 3-31-1-4-7-22-5-29 3-7 7-15 7-15 0 0 4-8 10-14 5-5 23-9 27-10 10-2 18-3 25-17 2-3 2-23 2-23 0 0 0-20-1-24z"/>
<glyph glyph-name="masdar-phillips" unicode="&#83;" d="M257 481c-124 0-225-101-225-225 0-124 101-225 225-225 124 0 225 101 225 225 0 124-101 225-225 225z m158-261l-84 0-24-14-15-24 0-84c-5-2-25-5-38-5 0 0-29 3-34 5l0 83-13 25-24 14-84 0c-2 4-5 24-5 38 0 0 3 28 5 34l83 0 23 14 15 25 0 83c4 2 24 5 38 5 0 0 29-3 34-5l0-83 14-25 25-14 84 0c1-5 5-25 5-38 0 0-3-29-5-34z"/>
<glyph glyph-name="masdar-hex-socket" unicode="&#84;" d="M257 481c-124 0-225-101-225-225 0-124 101-225 225-225 124 0 225 101 225 225 0 124-101 225-225 225z m79-360l-159 0-75 135 77 135 157 0 78-135z"/>
<glyph glyph-name="masdar-torx" unicode="&#85;" d="M257 481c-124 0-225-101-225-225 0-124 101-225 225-225 124 0 225 101 225 225 0 124-101 225-225 225z m148-261c-9-3-23-10-28-13-5-3-8-6-12-12l0-1c-3-6-4-10-4-17 1-5 2-21 4-30 3-16 5-40-14-50-18-11-38 3-50 14-7 6-20 14-25 17-6 4-10 5-17 5l-1-1c-7 0-11-1-16-5-5-3-18-12-25-19-12-10-32-23-50-13-18 10-16 35-13 51 1 9 2 24 3 30 0 7-2 11-5 17l-1 2c-4 6-7 8-13 11-5 3-19 9-28 12-15 6-37 17-37 38 0 21 23 31 38 36 9 3 23 10 28 13 6 3 8 6 12 12l0 1c3 7 4 10 4 17-1 6-2 21-4 31-3 15-4 39 14 49 18 11 38-3 51-14 7-6 20-14 25-18 5-3 10-4 17-4l1 1c7 0 10 1 16 5 5 3 17 12 24 18 12 11 33 24 51 13 18-10 16-35 13-50-2-10-3-25-3-31 0-7 1-11 5-17l0-1c4-6 7-8 13-11 5-3 19-9 28-12 15-5 37-16 37-37 0-21-23-31-38-37z"/>
<glyph glyph-name="masdar-multi-point" unicode="&#86;" d="M257 481c-124 0-225-101-225-225 0-124 101-225 225-225 124 0 225 101 225 225 0 124-101 225-225 225z m182-272c-5-21-40-18-46-29l-1-1c-7-12 14-40-1-55-15-15-44 5-55-1l-1-1c-13-7-8-41-29-46-20-6-35 26-48 26l-1 0c-14 0-27-32-48-26-21 5-17 40-29 46l0 1c-13 7-40-14-55 1-16 15 5 44-2 55l0 1c-7 12-41 8-47 28-6 21 26 36 26 49l0 1c1 14-31 27-26 48 5 21 40 17 47 29l1 0c7 12-14 40 1 55 15 16 44-5 55 2l1 0c12 7 8 41 28 47 21 6 36-26 49-26l0 0c15-1 28 31 49 26 21-5 17-40 29-47l0 0c12-8 40 13 55-2 15-15-5-44 2-55l0 0c7-13 41-9 46-29 6-21-26-35-26-49l0 0c0-15 32-28 26-48z"/>
<glyph glyph-name="masdar-tri-wing" unicode="&#87;" d="M257 481c-125 0-225-101-225-225 0-124 100-225 225-225 124 0 225 101 225 225 0 124-101 225-225 225z m146-140c0 0-63-36-70-41-8-4-11-8-12-18l0-196c0-10-7-17-17-17l-29 0c-10 0-18 8-18 17l0 81c0 9-2 15-11 20-8 5-167 98-167 98-9 5-12 15-7 23l15 26c5 9 15 11 24 7l70-41c7-4 14-5 22 0l168 97c8 5 19 2 23-6l15-26c5-8 2-19-6-24z"/>
<glyph glyph-name="masdar-square-socket" unicode="&#89;" d="M257 481c-124 0-225-101-225-225 0-124 101-225 225-225 124 0 225 101 225 225 0 124-101 225-225 225z m123-348l-246 0 0 246 246 0z"/>
<glyph glyph-name="masdar-hex-socket-bo" unicode="&#90;" d="M259 321c-37 0-67-30-67-67 0-36 30-66 67-66 36 0 66 30 66 66 0 37-30 67-66 67z m-2 160c-124 0-225-101-225-225 0-124 101-225 225-225 124 0 225 101 225 225 0 124-101 225-225 225z m95-384l-189 0-90 159 92 163 187 0 93-161z"/>
<glyph glyph-name="masdar-torx-plus-ipr" unicode="&#48;" d="M257 481c-124 0-225-101-225-225 0-124 101-225 225-225 124 0 225 101 225 225 0 124-101 225-225 225z m164-322c-21-35-44 0-93-25l-4-2c-46-30-27-67-69-67-40 0-24 38-68 67l-4 2c-48 25-73-8-92 25-21 36 23 38 25 93l0 4c-2 55-44 57-23 92 21 36 44 0 92 26l4 2c47 31 28 69 68 69 40 0 23-38 69-67l4-2c49-25 72 8 93-25 21-36-23-38-25-93l0-4c2-55 44-59 23-95z m-164 164c-37 0-67-30-67-67 0-37 30-67 67-67 37 0 67 30 67 67 0 37-30 67-67 67z"/>
<glyph glyph-name="masdar-pozidriv-plus-minus" unicode="&#49;" d="M482 256c0 12-1 23-3 35 0 0 0 0 0 0-8 53-35 101-74 135-1 0-1 0-2 1-9 8-18 15-29 21-1 1-2 2-3 2-11 6-21 11-32 16-2 0-3 1-5 2-11 4-23 7-34 9-2 1-3 1-5 1-12 2-25 3-38 3-13 0-26-1-39-3-1 0-2 0-4-1-12-2-23-5-34-10-2 0-4-1-5-1-11-5-22-10-32-16-1 0-2-1-3-2-11-6-21-13-30-21 0-1 0-1-1-1-47-41-77-102-77-170 0-20 2-40 8-60 26-97 116-165 217-165 13 0 26 1 38 3 2 0 3 0 5 1 11 2 23 5 34 10 2 0 3 1 5 1 11 5 21 10 32 16 1 0 2 1 3 2 11 6 20 13 29 21 1 1 1 1 2 2 39 34 66 81 74 134 0 0 0 0 0 0 2 12 3 23 3 35z m-15-35l-108 0-22-23 37-60-60 38-22-22 0-79-70 0 0 79-23 22-60-37 38 60-23 22-108 0c-2 12-3 23-3 35 0 12 1 23 3 35l108 0 23 23-38 59 60-37 23 22 0 79 70 0 0-79 22-22 60 37-37-60 22-22 108 0c2-12 4-23 4-35 0-12-2-23-4-35z"/>
<glyph glyph-name="masdar-pozidriv" unicode="&#50;" d="M257 481c-124 0-225-101-225-225 0-20 2-40 8-60 26-97 116-165 217-165 124 0 225 101 225 225 0 124-101 225-225 225z m67-263l50-79-79 50-9-109c0 0-9-5-29-5-20 0-29 5-29 5l-9 109-80-50 50 79-108 9c0 0-6 9-6 29 0 20 6 30 6 30l108 8-50 79 80-50 9 109c0 0 9 5 29 5 20 0 29-5 29-5l9-109 79 50-50-79 109-9c0 0 5-9 5-29 0-20-5-30-5-30z"/>
<glyph glyph-name="masdar-marker-2" unicode="&#52;" d="M257 484c-78 0-143-63-143-143 0-21 4-42 15-61 0-2 128-252 128-252l126 248c11 19 15 42 15 65 2 80-63 143-141 143z m-78-95l7-10 10-19-19-32-33 0z m-17-94l-16 29 33 0 17-29-34 0z m36 2l-17 29 17 30 17-30z m40-2l-19 31-38 66 17 29 57-97 17-29-34 0z m38 2l-17 29-38 68-17 27-2 4 34 0 57-99z m21 29l-38 66 17 29 55-94-17-30z m55-31l-34 0 17 29 33 0z m-17 34l-11 18-44 78 34 0 54-96z"/>
<glyph glyph-name="masdar-fax" unicode="&#53;" d="M489 405l-61 0 0 55c0 11-8 21-21 21l-299 0c-10 0-21-8-21-21l0-55-61 0c-10 0-21-8-21-21l0-202c0-10 9-21 21-21l61 0 0-109c0-6 2-13 7-17 2-2 4-4 8-4l307 0c4 0 6 2 8 4 7 4 7 11 7 17l0 109 61 0c10 0 21 9 21 21l0 202c4 11-6 21-17 21z m-431-73c-11 0-19 8-19 19 0 10 8 19 19 19 10 0 19-9 19-19-2-11-11-19-19-19z m349-280l-299 0 0 162 299 0 0-162z m0 353l-299 0 0 36c0 11 9 21 21 21 87-2 171-2 257-2 10 0 21-8 21-21z"/>
<glyph glyph-name="masdar-machining" unicode="&#54;" d="M80 381l0-29 38-9z m7-15l10-10-10 2z m23 13l-2 3 0-3z m-2 51l-19-19 19-29z m-4-28l-7 9 7 4z m288 17l-2-38 29 44z m6-6l8 0-8-11z m6-38l-25-30 51 17z m0-9l7-4-13-4z m-122-79l0 8c36 4 42 15 44 17l0 54c19 7 26 15 28 17l0 101-13 0 0-14-21-21 2-3 17 17 0-14-21-21 2-2 21 21 0-15-21-21 2-2 17 17 0-15-21-21 2-2 17 17 0-21c-4-4-23-17-90-17-68 0-87 13-91 17l0 100-8 0 0-99 2-2c2-2 6-10 27-17l0-56c2-2 8-13 44-17l0-9-73 0-91-90 0-166 307 0 91 90 0 169z m-94 31l0 46c8-2 17-2 27-4l0-31 13 0 0 31 46 0 0-31 13 0 0 31c10 0 18 2 27 4l0-46c-4-2-17-13-63-13-47 0-59 9-63 13z m94-103c2-2 2-2 5-4l0-63c-2 4-5 10-5 17z m-29 40l17 17 0-15-19-19 2-2 17 17 0-17-19-19 2-2 17 17 0-15-19-19 2-2 17 17 0-14-19-19 2-2 17 17 0-15-19-19 2-2 17 17 0-19c-2-2-9-4-19-4-11 0-15 2-17 4l0 139 34 0-17-17 2-2 17 17 0-15-19-21z m-30-109c5-5 11-9 28-9 10 0 19 2 23 7 6-13 17-21 31-30l-130 0c21 6 36 17 48 32z m66-2l0 65c2-2 2-2 4-5l0-67c0 2-2 4-4 7z m8-9l0 67c2 0 4-2 4-2l0-69c-2 0-2 2-4 4z m-124-10l0 71c2 0 4 2 8 2l0-71c-4 0-6 0-8-2z m10 4l0 69c3 2 5 2 7 5l0-70c-2 0-4-2-7-4z m11 6l0 69c2 0 4 3 4 3l0-70c-2 0-2 0-4-2z m8 6l0 70c2 2 5 2 5 4l0-67c-3-2-3-4-5-7z m9 9l0 67c2 2 2 2 4 4l0-65c-2-4-4-6-4-6z m6 8l0 65c2 2 2 2 4 5l0-63c-2-3-2-5-4-7z m-63 116l67 0 0-25c-29-49-94-51-143-51z m15-80l0-71c-2 0-7-3-9-3l0 72c5 2 7 2 9 2z m-11-2l0-72c-4 0-6-2-10-2l0 72c4 0 6 2 10 2z m-12-2l0-72c-5 0-7-2-11-2l0 72c2 0 6 0 11 2z m-15-2l0-72c-4 0-8 0-13-2l0 72c5 0 9 2 13 2z m-15-2l0-72-12 0 0 72z m-15 0l0-72-14 0 0 72z m-31 0l10 0c2 0 2 0 5 0l0-72-15 0z m282-144l-282 0 0 57 282 0 0-57z m-47 87l0 69c3 0 5-2 7-2l0-69c-2 0-4 0-7 2z m11-4l0 69c2 0 4-2 8-2l0-69c-4 0-6 0-8 2z m10-5l0 70c5 0 9-2 11-2l0-72c-4 2-6 2-11 4z m26-6c-5 0-9 0-13 2l0 72c4 0 8-2 13-2z m2 84c-17 2-72 11-72 51l0 25 148 0z m86 72l0-34-17 17z m-36-38l36-36 0-31-53 50z m-38-183l0 38 19-19z m19 21l-21 21 0 32 2 0 36-36z m19 19l-38 38 0 31 55-54z m19 17l-57 59 0 27 2 2 72-72z m19 21l-71 69 16 17 55-55z m0 71l-36 34 17 17 19-19 0-32z"/>
<glyph glyph-name="masdar-bolt-nut-2" unicode="&#55;" d="M263 340l-29 105-107 30-77-81 29-105 108-28z m-155 12c-7 28 8 55 35 62 27 8 55-7 62-34 9-26-7-53-35-62-27-8-54 7-62 34z m-20-249c0-36 29-66 65-66l20 20-67 66z m32 35l67-67 22 22-67 67z m37 37l67-67 22 21-67 67z m302 112l-123 124c-4 4-11 4-15 0l-33-33c-3-3-3-11 0-14l28-27-124-124 67-68 124 124 27-27c4-4 11-4 15 0l33 33c5 1 5 7 1 12z"/>
</font>
</defs>
</svg>
